Среда, 19 Июня 2019, 02:34

Приветствую Вас Гость

[ Новые сообщения · Игроделы · Правила · Поиск ]
  • Страница 1 из 1
  • 1
Модератор форума: beril  
Форум игроделов » Движки для разработки игр и сложные системы разработки » Unity » Плохо работает Video player
Плохо работает Video player
OrcanДата: Вторник, 18 Июля 2017, 19:19 | Сообщение # 1
почетный гость
Сейчас нет на сайте
Привет всем! У меня проблема с Video player. Загрузил в него видио mp4 которое весит 25мб продолжительность 36 секунд. В простом Windows Media все работает хорошо ,без лагов. Закинул в Редакторе в Unityвский Video player и он глючит при просмотре у меня. У другого человека вообще не включился. На всякий случай настройки http://www.gamedev.ru/files/images/?id=126925. Просто включал через Play() всё по стандарту. Думал Весит много с и битрейт был большой сделал с 56 до 25мб но результат нулевой.
На всякий случай Информация О Видио.
Complete name :
Format : MPEG-4
Format profile : Base Media / Version 2
Codec ID : mp42 (mp42/mp41)
File size : 24,0 Мбайт
Duration : 37 с. 371 мс.
Overall bit rate mode : Переменный
Overall bit rate : 5397 Кбит/сек
Encoded date : UTC 2017-07-14 21:50:37
Tagged date : UTC 2017-07-14 21:50:37
©TIM : 00;00;00;00
©TSC : 30000
©TSZ : 1001

Видео
ID : 1
Format : AVC
Format/Info : Advanced Video Codec
Format profile : Main@L4.1
Format settings, CABAC : Да
Format settings, RefFrames : 3 кадра
Format settings, GOP : M=4, N=29
Codec ID : avc1
Codec ID/Info : Advanced Video Coding
Duration : 37 с. 371 мс.
Bit rate : 5071 Кбит/сек
Width : 1920 пикселей
Height : 1080 пикселей
Display aspect ratio : 16:9
Frame rate mode : Постоянный
Frame rate : 29,970 (30000/1001) кадров/сек
Standard : NTSC
Color space : YUV
Chroma subsampling : 4:2:0
Bit depth : 8 бит
Scan type : Прогрессивная
Bits/(Pixel*Frame) : 0.082
Stream size : 22,6 Мбайт (94%)
Language : English
Encoded date : UTC 2017-07-14 21:50:37
Tagged date : UTC 2017-07-14 21:50:37
Color range : Limited
Color primaries : BT.709
Transfer characteristics : BT.709
Matrix coefficients : BT.709

Аудио
ID : 2
Format : AAC
Format/Info : Advanced Audio Codec
Format profile : LC
Codec ID : 40
Duration : 37 с. 371 мс.
Source duration : 37 с. 440 мс.
Bit rate mode : Переменный
Bit rate : 317 Кбит/сек
Maximum bit rate : 360 Кбит/сек
Channel(s) : 2 канала
Channel positions : Front: L R
Sampling rate : 48,0 КГц
Frame rate : 46,875 кадров/сек (1024 SPF)
Compression mode : С потерями
Stream size : 1,41 Мбайт (6%)
Source stream size : 1,42 Мбайт (6%)
Language : English
Encoded date : UTC 2017-07-14 21:50:37
Tagged date : UTC 2017-07-14 21:50:37


Форум игроделов » Движки для разработки игр и сложные системы разработки » Unity » Плохо работает Video player
  • Страница 1 из 1
  • 1
Поиск:

Все права сохранены. GcUp.ru © 2008-2019 Рейтинг